Community
cancel
Showing results for 
Search instead for 
Did you mean: 
Adam_D_1
Beginner
211 Views

Linux ffmpeg-qsv return MFX_ERR_UNSUPPORTED

Hi

I was compiled ffmpeg-qsv (https://github.com/drocon11/ffmpeg-qsv) and try convert video, but get an error:

# ffmpeg -i San_Diego_Clip.ts -c:v h264 San_Diego_Clip.mp4
ffmpeg version N-62801-g4031cdc Copyright (c) 2000-2014 the FFmpeg developers
  built on Sep  5 2014 08:33:04 with gcc 4.8 (Ubuntu 4.8.2-19ubuntu1)
  configuration: --enable-libmfx --enable-memalign-hack --extra-libs='-lsupc++ -lstdc++'
  libavutil      52. 79.100 / 52. 79.100
  libavcodec     55. 59.101 / 55. 59.101
  libavformat    55. 37.101 / 55. 37.101
  libavdevice    55. 13.100 / 55. 13.100
  libavfilter     4.  4.100 /  4.  4.100
  libswscale      2.  6.100 /  2.  6.100
  libswresample   0. 18.100 /  0. 18.100
Input #0, mpegts, from 'San_Diego_Clip.ts':
  Duration: 00:01:39.82, start: 0.254489, bitrate: 26053 kb/s
  Program 1 
    Stream #0:0[0x810]: Video: mpeg2video (Main) ([2][0][0][0] / 0x0002), yuv420p(tv), 1440x1080 [SAR 4:3 DAR 16:9], max. 25000 kb/s, 29.97 fps, 29.97 tbr, 90k tbn, 59.94 tbc
    Stream #0:1[0x814]: Audio: mp2 ([3][0][0][0] / 0x0003), 48000 Hz, stereo, s16p, 384 kb/s
[h264_qsv @ 0x1fc3100] MFXInit(): -3
Output #0, mp4, to 'San_Diego_Clip.mp4':
    Stream #0:0: Video: h264, nv12, 1440x1080 [SAR 4:3 DAR 16:9], q=2-31, 90k tbn, 29.97 tbc
    Stream #0:1: Audio: aac, 48000 Hz, stereo, fltp, 128 kb/s
Stream mapping:
  Stream #0:0 -> #0:0 (mpeg2video -> h264_qsv)
  Stream #0:1 -> #0:1 (mp2 -> aac)
Error while opening encoder for output stream #0:0 - maybe incorrect parameters such as bit_rate, rate, width or height
Conversion failed!

I was examined error codes and find -3 is MFX_ERR_UNSUPPORTED.

 

This is linux machine info:

root@server4:~# cat /proc/cpuinfo 
processor    : 0
vendor_id    : GenuineIntel
cpu family    : 6
model        : 60
model name    : Intel(R) Core(TM) i7-4790 CPU @ 3.60GHz
stepping    : 3
microcode    : 0x12
cpu MHz        : 800.000
cache size    : 8192 KB
physical id    : 0
siblings    : 8
core id        : 0
cpu cores    : 4
apicid        : 0
initial apicid    : 0
fpu        : yes
fpu_exception    : yes
cpuid level    : 13
wp        : yes
flags        : fpu vme de pse tsc msr pae mce cx8 apic sep mtrr pge mca cmov pat pse36 clflush dts acpi mmx fxsr sse sse2 ss ht tm pbe syscall nx pdpe1gb rdtscp lm constant_tsc arch_perfmon pebs bts rep_good nopl xtopology nonstop_tsc aperfmperf eagerfpu pni pclmulqdq dtes64 monitor ds_cpl vmx smx est tm2 ssse3 fma cx16 xtpr pdcm pcid sse4_1 sse4_2 x2apic movbe popcnt tsc_deadline_timer aes xsave avx f16c rdrand lahf_lm abm ida arat xsaveopt pln pts dtherm tpr_shadow vnmi flexpriority ept vpid fsgsbase tsc_adjust bmi1 hle avx2 smep bmi2 erms invpcid rtm
bogomips    : 7183.39
clflush size    : 64
cache_alignment    : 64
address sizes    : 39 bits physical, 48 bits virtual
power management:

processor    : 1
vendor_id    : GenuineIntel
cpu family    : 6
model        : 60
model name    : Intel(R) Core(TM) i7-4790 CPU @ 3.60GHz
stepping    : 3
microcode    : 0x12
cpu MHz        : 800.000
cache size    : 8192 KB
physical id    : 0
siblings    : 8
core id        : 1
cpu cores    : 4
apicid        : 2
initial apicid    : 2
fpu        : yes
fpu_exception    : yes
cpuid level    : 13
wp        : yes
flags        : fpu vme de pse tsc msr pae mce cx8 apic sep mtrr pge mca cmov pat pse36 clflush dts acpi mmx fxsr sse sse2 ss ht tm pbe syscall nx pdpe1gb rdtscp lm constant_tsc arch_perfmon pebs bts rep_good nopl xtopology nonstop_tsc aperfmperf eagerfpu pni pclmulqdq dtes64 monitor ds_cpl vmx smx est tm2 ssse3 fma cx16 xtpr pdcm pcid sse4_1 sse4_2 x2apic movbe popcnt tsc_deadline_timer aes xsave avx f16c rdrand lahf_lm abm ida arat xsaveopt pln pts dtherm tpr_shadow vnmi flexpriority ept vpid fsgsbase tsc_adjust bmi1 hle avx2 smep bmi2 erms invpcid rtm
bogomips    : 7183.39
clflush size    : 64
cache_alignment    : 64
address sizes    : 39 bits physical, 48 bits virtual
power management:

processor    : 2
vendor_id    : GenuineIntel
cpu family    : 6
model        : 60
model name    : Intel(R) Core(TM) i7-4790 CPU @ 3.60GHz
stepping    : 3
microcode    : 0x12
cpu MHz        : 800.000
cache size    : 8192 KB
physical id    : 0
siblings    : 8
core id        : 2
cpu cores    : 4
apicid        : 4
initial apicid    : 4
fpu        : yes
fpu_exception    : yes
cpuid level    : 13
wp        : yes
flags        : fpu vme de pse tsc msr pae mce cx8 apic sep mtrr pge mca cmov pat pse36 clflush dts acpi mmx fxsr sse sse2 ss ht tm pbe syscall nx pdpe1gb rdtscp lm constant_tsc arch_perfmon pebs bts rep_good nopl xtopology nonstop_tsc aperfmperf eagerfpu pni pclmulqdq dtes64 monitor ds_cpl vmx smx est tm2 ssse3 fma cx16 xtpr pdcm pcid sse4_1 sse4_2 x2apic movbe popcnt tsc_deadline_timer aes xsave avx f16c rdrand lahf_lm abm ida arat xsaveopt pln pts dtherm tpr_shadow vnmi flexpriority ept vpid fsgsbase tsc_adjust bmi1 hle avx2 smep bmi2 erms invpcid rtm
bogomips    : 7183.39
clflush size    : 64
cache_alignment    : 64
address sizes    : 39 bits physical, 48 bits virtual
power management:

processor    : 3
vendor_id    : GenuineIntel
cpu family    : 6
model        : 60
model name    : Intel(R) Core(TM) i7-4790 CPU @ 3.60GHz
stepping    : 3
microcode    : 0x12
cpu MHz        : 800.000
cache size    : 8192 KB
physical id    : 0
siblings    : 8
core id        : 3
cpu cores    : 4
apicid        : 6
initial apicid    : 6
fpu        : yes
fpu_exception    : yes
cpuid level    : 13
wp        : yes
flags        : fpu vme de pse tsc msr pae mce cx8 apic sep mtrr pge mca cmov pat pse36 clflush dts acpi mmx fxsr sse sse2 ss ht tm pbe syscall nx pdpe1gb rdtscp lm constant_tsc arch_perfmon pebs bts rep_good nopl xtopology nonstop_tsc aperfmperf eagerfpu pni pclmulqdq dtes64 monitor ds_cpl vmx smx est tm2 ssse3 fma cx16 xtpr pdcm pcid sse4_1 sse4_2 x2apic movbe popcnt tsc_deadline_timer aes xsave avx f16c rdrand lahf_lm abm ida arat xsaveopt pln pts dtherm tpr_shadow vnmi flexpriority ept vpid fsgsbase tsc_adjust bmi1 hle avx2 smep bmi2 erms invpcid rtm
bogomips    : 7183.39
clflush size    : 64
cache_alignment    : 64
address sizes    : 39 bits physical, 48 bits virtual
power management:

processor    : 4
vendor_id    : GenuineIntel
cpu family    : 6
model        : 60
model name    : Intel(R) Core(TM) i7-4790 CPU @ 3.60GHz
stepping    : 3
microcode    : 0x12
cpu MHz        : 800.000
cache size    : 8192 KB
physical id    : 0
siblings    : 8
core id        : 0
cpu cores    : 4
apicid        : 1
initial apicid    : 1
fpu        : yes
fpu_exception    : yes
cpuid level    : 13
wp        : yes
flags        : fpu vme de pse tsc msr pae mce cx8 apic sep mtrr pge mca cmov pat pse36 clflush dts acpi mmx fxsr sse sse2 ss ht tm pbe syscall nx pdpe1gb rdtscp lm constant_tsc arch_perfmon pebs bts rep_good nopl xtopology nonstop_tsc aperfmperf eagerfpu pni pclmulqdq dtes64 monitor ds_cpl vmx smx est tm2 ssse3 fma cx16 xtpr pdcm pcid sse4_1 sse4_2 x2apic movbe popcnt tsc_deadline_timer aes xsave avx f16c rdrand lahf_lm abm ida arat xsaveopt pln pts dtherm tpr_shadow vnmi flexpriority ept vpid fsgsbase tsc_adjust bmi1 hle avx2 smep bmi2 erms invpcid rtm
bogomips    : 7183.39
clflush size    : 64
cache_alignment    : 64
address sizes    : 39 bits physical, 48 bits virtual
power management:

processor    : 5
vendor_id    : GenuineIntel
cpu family    : 6
model        : 60
model name    : Intel(R) Core(TM) i7-4790 CPU @ 3.60GHz
stepping    : 3
microcode    : 0x12
cpu MHz        : 800.000
cache size    : 8192 KB
physical id    : 0
siblings    : 8
core id        : 1
cpu cores    : 4
apicid        : 3
initial apicid    : 3
fpu        : yes
fpu_exception    : yes
cpuid level    : 13
wp        : yes
flags        : fpu vme de pse tsc msr pae mce cx8 apic sep mtrr pge mca cmov pat pse36 clflush dts acpi mmx fxsr sse sse2 ss ht tm pbe syscall nx pdpe1gb rdtscp lm constant_tsc arch_perfmon pebs bts rep_good nopl xtopology nonstop_tsc aperfmperf eagerfpu pni pclmulqdq dtes64 monitor ds_cpl vmx smx est tm2 ssse3 fma cx16 xtpr pdcm pcid sse4_1 sse4_2 x2apic movbe popcnt tsc_deadline_timer aes xsave avx f16c rdrand lahf_lm abm ida arat xsaveopt pln pts dtherm tpr_shadow vnmi flexpriority ept vpid fsgsbase tsc_adjust bmi1 hle avx2 smep bmi2 erms invpcid rtm
bogomips    : 7183.39
clflush size    : 64
cache_alignment    : 64
address sizes    : 39 bits physical, 48 bits virtual
power management:

processor    : 6
vendor_id    : GenuineIntel
cpu family    : 6
model        : 60
model name    : Intel(R) Core(TM) i7-4790 CPU @ 3.60GHz
stepping    : 3
microcode    : 0x12
cpu MHz        : 800.000
cache size    : 8192 KB
physical id    : 0
siblings    : 8
core id        : 2
cpu cores    : 4
apicid        : 5
initial apicid    : 5
fpu        : yes
fpu_exception    : yes
cpuid level    : 13
wp        : yes
flags        : fpu vme de pse tsc msr pae mce cx8 apic sep mtrr pge mca cmov pat pse36 clflush dts acpi mmx fxsr sse sse2 ss ht tm pbe syscall nx pdpe1gb rdtscp lm constant_tsc arch_perfmon pebs bts rep_good nopl xtopology nonstop_tsc aperfmperf eagerfpu pni pclmulqdq dtes64 monitor ds_cpl vmx smx est tm2 ssse3 fma cx16 xtpr pdcm pcid sse4_1 sse4_2 x2apic movbe popcnt tsc_deadline_timer aes xsave avx f16c rdrand lahf_lm abm ida arat xsaveopt pln pts dtherm tpr_shadow vnmi flexpriority ept vpid fsgsbase tsc_adjust bmi1 hle avx2 smep bmi2 erms invpcid rtm
bogomips    : 7183.39
clflush size    : 64
cache_alignment    : 64
address sizes    : 39 bits physical, 48 bits virtual
power management:

processor    : 7
vendor_id    : GenuineIntel
cpu family    : 6
model        : 60
model name    : Intel(R) Core(TM) i7-4790 CPU @ 3.60GHz
stepping    : 3
microcode    : 0x12
cpu MHz        : 800.000
cache size    : 8192 KB
physical id    : 0
siblings    : 8
core id        : 3
cpu cores    : 4
apicid        : 7
initial apicid    : 7
fpu        : yes
fpu_exception    : yes
cpuid level    : 13
wp        : yes
flags        : fpu vme de pse tsc msr pae mce cx8 apic sep mtrr pge mca cmov pat pse36 clflush dts acpi mmx fxsr sse sse2 ss ht tm pbe syscall nx pdpe1gb rdtscp lm constant_tsc arch_perfmon pebs bts rep_good nopl xtopology nonstop_tsc aperfmperf eagerfpu pni pclmulqdq dtes64 monitor ds_cpl vmx smx est tm2 ssse3 fma cx16 xtpr pdcm pcid sse4_1 sse4_2 x2apic movbe popcnt tsc_deadline_timer aes xsave avx f16c rdrand lahf_lm abm ida arat xsaveopt pln pts dtherm tpr_shadow vnmi flexpriority ept vpid fsgsbase tsc_adjust bmi1 hle avx2 smep bmi2 erms invpcid rtm
bogomips    : 7183.39
clflush size    : 64
cache_alignment    : 64
address sizes    : 39 bits physical, 48 bits virtual
power management:

 

lspci -vv
00:00.0 Host bridge: Intel Corporation 4th Gen Core Processor DRAM Controller (rev 06)
    Subsystem: Gigabyte Technology Co., Ltd Device 5000
    Control: I/O- Mem+ BusMaster+ SpecCycle- MemWINV- VGASnoop- ParErr- Stepping- SERR- FastB2B- DisINTx-
    Status: Cap+ 66MHz- UDF- FastB2B+ ParErr- DEVSEL=fast >TAbort- <TAbort- <MAbort+ >SERR- <PERR- INTx-
    Latency: 0
    Capabilities: [e0] Vendor Specific Information: Len=0c <?>

00:01.0 PCI bridge: Intel Corporation Xeon E3-1200 v3/4th Gen Core Processor PCI Express x16 Controller (rev 06) (prog-if 00 [Normal decode])
    Control: I/O+ Mem+ BusMaster+ SpecCycle- MemWINV- VGASnoop- ParErr- Stepping- SERR- FastB2B- DisINTx+
    Status: Cap+ 66MHz- UDF- FastB2B- ParErr- DEVSEL=fast >TAbort- <TAbort- <MAbort- >SERR- <PERR- INTx-
    Latency: 0, Cache Line Size: 64 bytes
    Bus: primary=00, secondary=01, subordinate=01, sec-latency=0
    Memory behind bridge: f7d00000-f7dfffff
    Secondary status: 66MHz- FastB2B- ParErr- DEVSEL=fast >TAbort- <TAbort- <MAbort+ <SERR- <PERR-
    BridgeCtl: Parity- SERR- NoISA- VGA- MAbort- >Reset- FastB2B-
        PriDiscTmr- SecDiscTmr- DiscTmrStat- DiscTmrSERREn-
    Capabilities: [88] Subsystem: Gigabyte Technology Co., Ltd Device 5000
    Capabilities: [80] Power Management version 3
        Flags: PMEClk- DSI- D1- D2- AuxCurrent=0mA PME(D0+,D1-,D2-,D3hot+,D3cold+)
        Status: D0 NoSoftRst+ PME-Enable- DSel=0 DScale=0 PME-
    Capabilities: [90] MSI: Enable+ Count=1/1 Maskable- 64bit-
        Address: fee002d8  Data: 0000
    Capabilities: [a0] Express (v2) Root Port (Slot+), MSI 00
        DevCap:    MaxPayload 128 bytes, PhantFunc 0
            ExtTag- RBE+
        DevCtl:    Report errors: Correctable- Non-Fatal- Fatal- Unsupported-
            RlxdOrd- ExtTag- PhantFunc- AuxPwr- NoSnoop-
            MaxPayload 128 bytes, MaxReadReq 128 bytes
        DevSta:    CorrErr- UncorrErr- FatalErr- UnsuppReq- AuxPwr- TransPend-
        LnkCap:    Port #2, Speed 5GT/s, Width x16, ASPM L0s L1, Exit Latency L0s <1us, L1 <8us
            ClockPM- Surprise- LLActRep- BwNot+
        LnkCtl:    ASPM Disabled; RCB 64 bytes Disabled- CommClk-
            ExtSynch- ClockPM- AutWidDis- BWInt- AutBWInt-
        LnkSta:    Speed 2.5GT/s, Width x1, TrErr- Train- SlotClk+ DLActive- BWMgmt+ ABWMgmt-
        SltCap:    AttnBtn- PwrCtrl- MRL- AttnInd- PwrInd- HotPlug- Surprise-
            Slot #1, PowerLimit 75.000W; Interlock- NoCompl+
        SltCtl:    Enable: AttnBtn- PwrFlt- MRL- PresDet- CmdCplt- HPIrq- LinkChg-
            Control: AttnInd Unknown, PwrInd Unknown, Power- Interlock-
        SltSta:    Status: AttnBtn- PowerFlt- MRL- CmdCplt- PresDet+ Interlock-
            Changed: MRL- PresDet- LinkState-
        RootCtl: ErrCorrectable- ErrNon-Fatal- ErrFatal- PMEIntEna+ CRSVisible-
        RootCap: CRSVisible-
        RootSta: PME ReqID 0000, PMEStatus- PMEPending-
        DevCap2: Completion Timeout: Not Supported, TimeoutDis-, LTR+, OBFF Via WAKE# ARIFwd-
        DevCtl2: Completion Timeout: 50us to 50ms, TimeoutDis-, LTR+, OBFF Via WAKE# ARIFwd-
        LnkCtl2: Target Link Speed: 2.5GT/s, EnterCompliance- SpeedDis-
             Transmit Margin: Normal Operating Range, EnterModifiedCompliance- ComplianceSOS-
             Compliance De-emphasis: -6dB
        LnkSta2: Current De-emphasis Level: -6dB, EqualizationComplete-, EqualizationPhase1-
             EqualizationPhase2-, EqualizationPhase3-, LinkEqualizationRequest-
    Capabilities: [100 v1] Virtual Channel
        Caps:    LPEVC=0 RefClk=100ns PATEntryBits=1
        Arb:    Fixed- WRR32- WRR64- WRR128-
        Ctrl:    ArbSelect=Fixed
        Status:    InProgress-
        VC0:    Caps:    PATOffset=00 MaxTimeSlots=1 RejSnoopTrans-
            Arb:    Fixed+ WRR32- WRR64- WRR128- TWRR128- WRR256-
            Ctrl:    Enable+ ID=0 ArbSelect=Fixed TC/VC=ff
            Status:    NegoPending- InProgress-
    Capabilities: [140 v1] Root Complex Link
        Desc:    PortNumber=02 ComponentID=01 EltType=Config
        Link0:    Desc:    TargetPort=00 TargetComponent=01 AssocRCRB- LinkType=MemMapped LinkValid+
            Addr:    00000000fed19000
    Kernel driver in use: pcieport

00:02.0 VGA compatible controller: Intel Corporation Xeon E3-1200 v3/4th Gen Core Processor Integrated Graphics Controller (rev 06) (prog-if 00 [VGA controller])
    Subsystem: Gigabyte Technology Co., Ltd Device d000
    Control: I/O+ Mem+ BusMaster+ SpecCycle- MemWINV- VGASnoop- ParErr- Stepping- SERR- FastB2B- DisINTx+
    Status: Cap+ 66MHz- UDF- FastB2B+ ParErr- DEVSEL=fast >TAbort- <TAbort- <MAbort- >SERR- <PERR- INTx-
    Latency: 0
    Interrupt: pin A routed to IRQ 51
    Region 0: Memory at f7800000 (64-bit, non-prefetchable) [size=4M]
    Region 2: Memory at e0000000 (64-bit, prefetchable) [size=256M]
    Region 4: I/O ports at f000 [size=64]
    Expansion ROM at <unassigned> [disabled]
    Capabilities: [90] MSI: Enable+ Count=1/1 Maskable- 64bit-
        Address: fee00018  Data: 0000
    Capabilities: [d0] Power Management version 2
        Flags: PMEClk- DSI+ D1- D2- AuxCurrent=0mA PME(D0-,D1-,D2-,D3hot-,D3cold-)
        Status: D0 NoSoftRst- PME-Enable- DSel=0 DScale=0 PME-
    Capabilities: [a4] PCI Advanced Features
        AFCap: TP+ FLR+
        AFCtrl: FLR-
        AFStatus: TP-
    Kernel driver in use: i915

00:03.0 Audio device: Intel Corporation Xeon E3-1200 v3/4th Gen Core Processor HD Audio Controller (rev 06)
    Subsystem: Intel Corporation Device 2010
    Control: I/O- Mem+ BusMaster+ SpecCycle- MemWINV- VGASnoop- ParErr- Stepping- SERR- FastB2B- DisINTx+
    Status: Cap+ 66MHz- UDF- FastB2B- ParErr- DEVSEL=fast >TAbort- <TAbort- <MAbort- >SERR- <PERR- INTx-
    Latency: 0, Cache Line Size: 64 bytes
    Interrupt: pin A routed to IRQ 49
    Region 0: Memory at f7e14000 (64-bit, non-prefetchable) [size=16K]
    Capabilities: [50] Power Management version 2
        Flags: PMEClk- DSI- D1- D2- AuxCurrent=0mA PME(D0-,D1-,D2-,D3hot-,D3cold-)
        Status: D0 NoSoftRst- PME-Enable- DSel=0 DScale=0 PME-
    Capabilities: [60] MSI: Enable+ Count=1/1 Maskable- 64bit-
        Address: fee003b8  Data: 0000
    Capabilities: [70] Express (v1) Root Complex Integrated Endpoint, MSI 00
        DevCap:    MaxPayload 128 bytes, PhantFunc 0
            ExtTag- RBE-
        DevCtl:    Report errors: Correctable- Non-Fatal- Fatal- Unsupported-
            RlxdOrd- ExtTag- PhantFunc- AuxPwr- NoSnoop-
            MaxPayload 128 bytes, MaxReadReq 128 bytes
        DevSta:    CorrErr- UncorrErr- FatalErr- UnsuppReq- AuxPwr- TransPend-
    Kernel driver in use: snd_hda_intel

00:14.0 USB controller: Intel Corporation 8 Series/C220 Series Chipset Family USB xHCI (rev 05) (prog-if 30 [XHCI])
    Subsystem: Gigabyte Technology Co., Ltd Device 5007
    Control: I/O- Mem+ BusMaster+ SpecCycle- MemWINV- VGASnoop- ParErr- Stepping- SERR- FastB2B- DisINTx+
    Status: Cap+ 66MHz- UDF- FastB2B+ ParErr- DEVSEL=medium >TAbort- <TAbort- <MAbort- >SERR- <PERR- INTx-
    Latency: 0
    Interrupt: pin A routed to IRQ 45
    Region 0: Memory at f7e00000 (64-bit, non-prefetchable) [size=64K]
    Capabilities: [70] Power Management version 2
        Flags: PMEClk- DSI- D1- D2- AuxCurrent=375mA PME(D0-,D1-,D2-,D3hot+,D3cold+)
        Status: D0 NoSoftRst+ PME-Enable- DSel=0 DScale=0 PME-
    Capabilities: [80] MSI: Enable+ Count=1/8 Maskable- 64bit+
        Address: 00000000fee00338  Data: 0000
    Kernel driver in use: xhci_hcd

00:16.0 Communication controller: Intel Corporation 8 Series/C220 Series Chipset Family MEI Controller #1 (rev 04)
    Subsystem: Gigabyte Technology Co., Ltd Device 1c3a
    Control: I/O- Mem+ BusMaster+ SpecCycle- MemWINV- VGASnoop- ParErr- Stepping- SERR- FastB2B- DisINTx+
    Status: Cap+ 66MHz- UDF- FastB2B- ParErr- DEVSEL=fast >TAbort- <TAbort- <MAbort- >SERR- <PERR- INTx-
    Latency: 0
    Interrupt: pin A routed to IRQ 48
    Region 0: Memory at f7e1e000 (64-bit, non-prefetchable) [size=16]
    Capabilities: [50] Power Management version 3
        Flags: PMEClk- DSI- D1- D2- AuxCurrent=0mA PME(D0+,D1-,D2-,D3hot+,D3cold+)
        Status: D0 NoSoftRst+ PME-Enable- DSel=0 DScale=0 PME-
    Capabilities: [8c] MSI: Enable+ Count=1/1 Maskable- 64bit+
        Address: 00000000fee00398  Data: 0000
    Kernel driver in use: mei

00:1a.0 USB controller: Intel Corporation 8 Series/C220 Series Chipset Family USB EHCI #2 (rev 05) (prog-if 20 [EHCI])
    Subsystem: Gigabyte Technology Co., Ltd Device 5006
    Control: I/O- Mem+ BusMaster+ SpecCycle- MemWINV- VGASnoop- ParErr- Stepping- SERR- FastB2B- DisINTx-
    Status: Cap+ 66MHz- UDF- FastB2B+ ParErr- DEVSEL=medium >TAbort- <TAbort- <MAbort- >SERR- <PERR- INTx-
    Latency: 0
    Interrupt: pin A routed to IRQ 16
    Region 0: Memory at f7e1c000 (32-bit, non-prefetchable) [size=1K]
    Capabilities: [50] Power Management version 2
        Flags: PMEClk- DSI- D1- D2- AuxCurrent=375mA PME(D0+,D1-,D2-,D3hot+,D3cold+)
        Status: D0 NoSoftRst- PME-Enable- DSel=0 DScale=0 PME-
    Capabilities: [58] Debug port: BAR=1 offset=00a0
    Capabilities: [98] PCI Advanced Features
        AFCap: TP+ FLR+
        AFCtrl: FLR-
        AFStatus: TP-
    Kernel driver in use: ehci-pci

00:1b.0 Audio device: Intel Corporation 8 Series/C220 Series Chipset High Definition Audio Controller (rev 05)
    Subsystem: Gigabyte Technology Co., Ltd Device a002
    Control: I/O- Mem+ BusMaster+ SpecCycle- MemWINV- VGASnoop- ParErr- Stepping- SERR- FastB2B- DisINTx+
    Status: Cap+ 66MHz- UDF- FastB2B- ParErr- DEVSEL=fast >TAbort- <TAbort- <MAbort- >SERR- <PERR- INTx-
    Latency: 0, Cache Line Size: 64 bytes
    Interrupt: pin A routed to IRQ 50
    Region 0: Memory at f7e10000 (64-bit, non-prefetchable) [size=16K]
    Capabilities: [50] Power Management version 2
        Flags: PMEClk- DSI- D1- D2- AuxCurrent=55mA PME(D0+,D1-,D2-,D3hot+,D3cold+)
        Status: D0 NoSoftRst- PME-Enable- DSel=0 DScale=0 PME-
    Capabilities: [60] MSI: Enable+ Count=1/1 Maskable- 64bit+
        Address: 00000000fee003f8  Data: 0000
    Capabilities: [70] Express (v1) Root Complex Integrated Endpoint, MSI 00
        DevCap:    MaxPayload 128 bytes, PhantFunc 0
            ExtTag- RBE-
        DevCtl:    Report errors: Correctable- Non-Fatal- Fatal- Unsupported-
            RlxdOrd- ExtTag- PhantFunc- AuxPwr- NoSnoop-
            MaxPayload 128 bytes, MaxReadReq 128 bytes
        DevSta:    CorrErr- UncorrErr- FatalErr- UnsuppReq- AuxPwr+ TransPend-
    Capabilities: [100 v1] Virtual Channel
        Caps:    LPEVC=0 RefClk=100ns PATEntryBits=1
        Arb:    Fixed- WRR32- WRR64- WRR128-
        Ctrl:    ArbSelect=Fixed
        Status:    InProgress-
        VC0:    Caps:    PATOffset=00 MaxTimeSlots=1 RejSnoopTrans-
            Arb:    Fixed- WRR32- WRR64- WRR128- TWRR128- WRR256-
            Ctrl:    Enable+ ID=0 ArbSelect=Fixed TC/VC=01
            Status:    NegoPending- InProgress-
        VC1:    Caps:    PATOffset=00 MaxTimeSlots=1 RejSnoopTrans-
            Arb:    Fixed- WRR32- WRR64- WRR128- TWRR128- WRR256-
            Ctrl:    Enable+ ID=2 ArbSelect=Fixed TC/VC=04
            Status:    NegoPending- InProgress-
    Kernel driver in use: snd_hda_intel

00:1c.0 PCI bridge: Intel Corporation 8 Series/C220 Series Chipset Family PCI Express Root Port #1 (rev d5) (prog-if 00 [Normal decode])
    Control: I/O+ Mem+ BusMaster+ SpecCycle- MemWINV- VGASnoop- ParErr- Stepping- SERR- FastB2B- DisINTx+
    Status: Cap+ 66MHz- UDF- FastB2B- ParErr- DEVSEL=fast >TAbort- <TAbort- <MAbort- >SERR- <PERR- INTx-
    Latency: 0, Cache Line Size: 64 bytes
    Bus: primary=00, secondary=02, subordinate=02, sec-latency=0
    Secondary status: 66MHz- FastB2B- ParErr- DEVSEL=fast >TAbort- <TAbort- <MAbort+ <SERR- <PERR-
    BridgeCtl: Parity- SERR- NoISA- VGA- MAbort- >Reset- FastB2B-
        PriDiscTmr- SecDiscTmr- DiscTmrStat- DiscTmrSERREn-
    Capabilities: [40] Express (v2) Root Port (Slot+), MSI 00
        DevCap:    MaxPayload 128 bytes, PhantFunc 0
            ExtTag- RBE+
        DevCtl:    Report errors: Correctable- Non-Fatal- Fatal- Unsupported-
            RlxdOrd- ExtTag- PhantFunc- AuxPwr- NoSnoop-
            MaxPayload 128 bytes, MaxReadReq 128 bytes
        DevSta:    CorrErr- UncorrErr- FatalErr- UnsuppReq- AuxPwr+ TransPend-
        LnkCap:    Port #1, Speed 5GT/s, Width x1, ASPM L0s L1, Exit Latency L0s <1us, L1 <16us
            ClockPM- Surprise- LLActRep+ BwNot+
        LnkCtl:    ASPM Disabled; RCB 64 bytes Disabled- CommClk-
            ExtSynch- ClockPM- AutWidDis- BWInt- AutBWInt-
        LnkSta:    Speed 2.5GT/s, Width x0, TrErr- Train- SlotClk+ DLActive- BWMgmt- ABWMgmt-
        SltCap:    AttnBtn- PwrCtrl- MRL- AttnInd- PwrInd- HotPlug- Surprise-
            Slot #0, PowerLimit 10.000W; Interlock- NoCompl+
        SltCtl:    Enable: AttnBtn- PwrFlt- MRL- PresDet- CmdCplt- HPIrq- LinkChg-
            Control: AttnInd Unknown, PwrInd Unknown, Power- Interlock-
        SltSta:    Status: AttnBtn- PowerFlt- MRL- CmdCplt- PresDet- Interlock-
            Changed: MRL- PresDet- LinkState-
        RootCtl: ErrCorrectable- ErrNon-Fatal- ErrFatal- PMEIntEna+ CRSVisible-
        RootCap: CRSVisible-
        RootSta: PME ReqID 0000, PMEStatus- PMEPending-
        DevCap2: Completion Timeout: Range ABC, TimeoutDis+, LTR+, OBFF Not Supported ARIFwd-
        DevCtl2: Completion Timeout: 50us to 50ms, TimeoutDis-, LTR+, OBFF Disabled ARIFwd-
        LnkCtl2: Target Link Speed: 5GT/s, EnterCompliance- SpeedDis-
             Transmit Margin: Normal Operating Range, EnterModifiedCompliance- ComplianceSOS-
             Compliance De-emphasis: -6dB
        LnkSta2: Current De-emphasis Level: -3.5dB, EqualizationComplete-, EqualizationPhase1-
             EqualizationPhase2-, EqualizationPhase3-, LinkEqualizationRequest-
    Capabilities: [80] MSI: Enable+ Count=1/1 Maskable- 64bit-
        Address: fee002f8  Data: 0000
    Capabilities: [90] Subsystem: Gigabyte Technology Co., Ltd Device 5001
    Capabilities: [a0] Power Management version 3
        Flags: PMEClk- DSI- D1- D2- AuxCurrent=0mA PME(D0+,D1-,D2-,D3hot+,D3cold+)
        Status: D0 NoSoftRst- PME-Enable- DSel=0 DScale=0 PME-
    Kernel driver in use: pcieport

00:1c.3 PCI bridge: Intel Corporation 8 Series/C220 Series Chipset Family PCI Express Root Port #4 (rev d5) (prog-if 00 [Normal decode])
    Control: I/O+ Mem+ BusMaster+ SpecCycle- MemWINV- VGASnoop- ParErr- Stepping- SERR- FastB2B- DisINTx+
    Status: Cap+ 66MHz- UDF- FastB2B- ParErr- DEVSEL=fast >TAbort- <TAbort- <MAbort- >SERR- <PERR- INTx-
    Latency: 0, Cache Line Size: 64 bytes
    Bus: primary=00, secondary=03, subordinate=03, sec-latency=0
    I/O behind bridge: 0000e000-0000efff
    Memory behind bridge: f7c00000-f7cfffff
    Prefetchable memory behind bridge: 00000000f0000000-00000000f00fffff
    Secondary status: 66MHz- FastB2B- ParErr- DEVSEL=fast >TAbort- <TAbort- <MAbort- <SERR- <PERR-
    BridgeCtl: Parity- SERR- NoISA- VGA- MAbort- >Reset- FastB2B-
        PriDiscTmr- SecDiscTmr- DiscTmrStat- DiscTmrSERREn-
    Capabilities: [40] Express (v2) Root Port (Slot+), MSI 00
        DevCap:    MaxPayload 128 bytes, PhantFunc 0
            ExtTag- RBE+
        DevCtl:    Report errors: Correctable- Non-Fatal- Fatal- Unsupported-
            RlxdOrd- ExtTag- PhantFunc- AuxPwr- NoSnoop-
            MaxPayload 128 bytes, MaxReadReq 128 bytes
        DevSta:    CorrErr- UncorrErr- FatalErr- UnsuppReq- AuxPwr+ TransPend-
        LnkCap:    Port #4, Speed 5GT/s, Width x1, ASPM L0s L1, Exit Latency L0s <512ns, L1 <16us
            ClockPM- Surprise- LLActRep+ BwNot+
        LnkCtl:    ASPM Disabled; RCB 64 bytes Disabled- CommClk+
            ExtSynch- ClockPM- AutWidDis- BWInt- AutBWInt-
        LnkSta:    Speed 2.5GT/s, Width x1, TrErr- Train- SlotClk+ DLActive+ BWMgmt+ ABWMgmt-
        SltCap:    AttnBtn- PwrCtrl- MRL- AttnInd- PwrInd- HotPlug- Surprise-
            Slot #3, PowerLimit 10.000W; Interlock- NoCompl+
        SltCtl:    Enable: AttnBtn- PwrFlt- MRL- PresDet- CmdCplt- HPIrq- LinkChg-
            Control: AttnInd Unknown, PwrInd Unknown, Power- Interlock-
        SltSta:    Status: AttnBtn- PowerFlt- MRL- CmdCplt- PresDet+ Interlock-
            Changed: MRL- PresDet- LinkState-
        RootCtl: ErrCorrectable- ErrNon-Fatal- ErrFatal- PMEIntEna+ CRSVisible-
        RootCap: CRSVisible-
        RootSta: PME ReqID 0000, PMEStatus- PMEPending-
        DevCap2: Completion Timeout: Range ABC, TimeoutDis+, LTR+, OBFF Not Supported ARIFwd-
        DevCtl2: Completion Timeout: 50us to 50ms, TimeoutDis-, LTR+, OBFF Disabled ARIFwd-
        LnkCtl2: Target Link Speed: 5GT/s, EnterCompliance- SpeedDis-
             Transmit Margin: Normal Operating Range, EnterModifiedCompliance- ComplianceSOS-
             Compliance De-emphasis: -6dB
        LnkSta2: Current De-emphasis Level: -3.5dB, EqualizationComplete-, EqualizationPhase1-
             EqualizationPhase2-, EqualizationPhase3-, LinkEqualizationRequest-
    Capabilities: [80] MSI: Enable+ Count=1/1 Maskable- 64bit-
        Address: fee00318  Data: 0000
    Capabilities: [90] Subsystem: Gigabyte Technology Co., Ltd Device 5001
    Capabilities: [a0] Power Management version 3
        Flags: PMEClk- DSI- D1- D2- AuxCurrent=0mA PME(D0+,D1-,D2-,D3hot+,D3cold+)
        Status: D0 NoSoftRst- PME-Enable- DSel=0 DScale=0 PME-
    Kernel driver in use: pcieport

00:1d.0 USB controller: Intel Corporation 8 Series/C220 Series Chipset Family USB EHCI #1 (rev 05) (prog-if 20 [EHCI])
    Subsystem: Gigabyte Technology Co., Ltd Device 5006
    Control: I/O- Mem+ BusMaster+ SpecCycle- MemWINV- VGASnoop- ParErr- Stepping- SERR- FastB2B- DisINTx-
    Status: Cap+ 66MHz- UDF- FastB2B+ ParErr- DEVSEL=medium >TAbort- <TAbort- <MAbort- >SERR- <PERR- INTx-
    Latency: 0
    Interrupt: pin A routed to IRQ 23
    Region 0: Memory at f7e1b000 (32-bit, non-prefetchable) [size=1K]
    Capabilities: [50] Power Management version 2
        Flags: PMEClk- DSI- D1- D2- AuxCurrent=375mA PME(D0+,D1-,D2-,D3hot+,D3cold+)
        Status: D0 NoSoftRst- PME-Enable- DSel=0 DScale=0 PME-
    Capabilities: [58] Debug port: BAR=1 offset=00a0
    Capabilities: [98] PCI Advanced Features
        AFCap: TP+ FLR+
        AFCtrl: FLR-
        AFStatus: TP-
    Kernel driver in use: ehci-pci

00:1f.0 ISA bridge: Intel Corporation C220 Series Chipset Family H81 Express LPC Controller (rev 05)
    Subsystem: Gigabyte Technology Co., Ltd Device 5001
    Control: I/O+ Mem+ BusMaster+ SpecCycle- MemWINV- VGASnoop- ParErr- Stepping- SERR- FastB2B- DisINTx-
    Status: Cap+ 66MHz- UDF- FastB2B- ParErr- DEVSEL=medium >TAbort- <TAbort- <MAbort- >SERR- <PERR- INTx-
    Latency: 0
    Capabilities: [e0] Vendor Specific Information: Len=0c <?>
    Kernel driver in use: lpc_ich

00:1f.2 SATA controller: Intel Corporation 8 Series/C220 Series Chipset Family 6-port SATA Controller 1 [AHCI mode] (rev 05) (prog-if 01 [AHCI 1.0])
    Subsystem: Gigabyte Technology Co., Ltd Device b005
    Control: I/O+ Mem+ BusMaster+ SpecCycle- MemWINV- VGASnoop- ParErr- Stepping- SERR- FastB2B- DisINTx+
    Status: Cap+ 66MHz+ UDF- FastB2B+ ParErr- DEVSEL=medium >TAbort- <TAbort- <MAbort- >SERR- <PERR- INTx-
    Latency: 0
    Interrupt: pin B routed to IRQ 46
    Region 0: I/O ports at f0b0 [size=8]
    Region 1: I/O ports at f0a0 [size=4]
    Region 2: I/O ports at f090 [size=8]
    Region 3: I/O ports at f080 [size=4]
    Region 4: I/O ports at f060 [size=32]
    Region 5: Memory at f7e1a000 (32-bit, non-prefetchable) [size=2K]
    Capabilities: [80] MSI: Enable+ Count=1/1 Maskable- 64bit-
        Address: fee00358  Data: 0000
    Capabilities: [70] Power Management version 3
        Flags: PMEClk- DSI- D1- D2- AuxCurrent=0mA PME(D0-,D1-,D2-,D3hot+,D3cold-)
        Status: D0 NoSoftRst+ PME-Enable- DSel=0 DScale=0 PME-
    Capabilities: [a8] SATA HBA v1.0 BAR4 Offset=00000004
    Kernel driver in use: ahci

00:1f.3 SMBus: Intel Corporation 8 Series/C220 Series Chipset Family SMBus Controller (rev 05)
    Subsystem: Gigabyte Technology Co., Ltd Device 5001
    Control: I/O+ Mem- BusMaster- SpecCycle- MemWINV- VGASnoop- ParErr- Stepping- SERR- FastB2B- DisINTx-
    Status: Cap- 66MHz- UDF- FastB2B+ ParErr- DEVSEL=medium >TAbort- <TAbort- <MAbort- >SERR- <PERR- INTx-
    Interrupt: pin C routed to IRQ 10
    Region 0: Memory at f7e19000 (64-bit, non-prefetchable) [disabled] [size=256]
    Region 4: I/O ports at f040 [size=32]

01:00.0 Multimedia controller: Philips Semiconductors SAA7160 (rev 03)
    Subsystem: Device 6982:0002
    Control: I/O+ Mem+ BusMaster+ SpecCycle- MemWINV- VGASnoop- ParErr- Stepping- SERR- FastB2B- DisINTx-
    Status: Cap+ 66MHz- UDF- FastB2B- ParErr- DEVSEL=fast >TAbort- <TAbort- <MAbort- >SERR- <PERR- INTx-
    Latency: 0, Cache Line Size: 64 bytes
    Interrupt: pin A routed to IRQ 11
    Region 0: Memory at f7d00000 (64-bit, non-prefetchable) [size=1M]
    Capabilities: [40] MSI: Enable- Count=1/32 Maskable- 64bit+
        Address: 0000000000000000  Data: 0000
    Capabilities: [50] Express (v1) Endpoint, MSI 00
        DevCap:    MaxPayload 128 bytes, PhantFunc 0, Latency L0s <256ns, L1 <1us
            ExtTag- AttnBtn- AttnInd- PwrInd- RBE- FLReset-
        DevCtl:    Report errors: Correctable- Non-Fatal- Fatal- Unsupported-
            RlxdOrd- ExtTag- PhantFunc- AuxPwr- NoSnoop+
            MaxPayload 128 bytes, MaxReadReq 128 bytes
        DevSta:    CorrErr- UncorrErr+ FatalErr- UnsuppReq+ AuxPwr- TransPend-
        LnkCap:    Port #1, Speed 2.5GT/s, Width x1, ASPM L0s L1, Exit Latency L0s <4us, L1 <64us
            ClockPM- Surprise- LLActRep- BwNot-
        LnkCtl:    ASPM Disabled; RCB 128 bytes Disabled- CommClk-
            ExtSynch- ClockPM- AutWidDis- BWInt- AutBWInt-
        LnkSta:    Speed 2.5GT/s, Width x1, TrErr- Train- SlotClk- DLActive- BWMgmt- ABWMgmt-
    Capabilities: [74] Power Management version 2
        Flags: PMEClk- DSI- D1+ D2+ AuxCurrent=0mA PME(D0+,D1+,D2+,D3hot-,D3cold-)
        Status: D0 NoSoftRst- PME-Enable- DSel=0 DScale=0 PME-
    Capabilities: [80] Vendor Specific Information: Len=50 <?>
    Capabilities: [100 v1] Vendor Specific Information: ID=0000 Rev=0 Len=088 <?>

03:00.0 Ethernet controller: Realtek Semiconductor Co., Ltd. RTL8111/8168/8411 PCI Express Gigabit Ethernet Controller (rev 06)
    Subsystem: Gigabyte Technology Co., Ltd Motherboard
    Control: I/O+ Mem+ BusMaster+ SpecCycle- MemWINV- VGASnoop- ParErr- Stepping- SERR- FastB2B- DisINTx+
    Status: Cap+ 66MHz- UDF- FastB2B- ParErr- DEVSEL=fast >TAbort- <TAbort- <MAbort- >SERR- <PERR- INTx-
    Latency: 0, Cache Line Size: 64 bytes
    Interrupt: pin A routed to IRQ 47
    Region 0: I/O ports at e000 [size=256]
    Region 2: Memory at f7c00000 (64-bit, non-prefetchable) [size=4K]
    Region 4: Memory at f0000000 (64-bit, prefetchable) [size=16K]
    Capabilities: [40] Power Management version 3
        Flags: PMEClk- DSI- D1+ D2+ AuxCurrent=375mA PME(D0+,D1+,D2+,D3hot+,D3cold+)
        Status: D0 NoSoftRst+ PME-Enable- DSel=0 DScale=0 PME-
    Capabilities: [50] MSI: Enable+ Count=1/1 Maskable- 64bit+
        Address: 00000000fee00378  Data: 0000
    Capabilities: [70] Express (v2) Endpoint, MSI 01
        DevCap:    MaxPayload 128 bytes, PhantFunc 0, Latency L0s <512ns, L1 <64us
            ExtTag- AttnBtn- AttnInd- PwrInd- RBE+ FLReset-
        DevCtl:    Report errors: Correctable- Non-Fatal- Fatal- Unsupported-
            RlxdOrd- ExtTag- PhantFunc- AuxPwr- NoSnoop-
            MaxPayload 128 bytes, MaxReadReq 4096 bytes
        DevSta:    CorrErr- UncorrErr- FatalErr- UnsuppReq- AuxPwr+ TransPend-
        LnkCap:    Port #0, Speed 2.5GT/s, Width x1, ASPM L0s L1, Exit Latency L0s unlimited, L1 <64us
            ClockPM+ Surprise- LLActRep- BwNot-
        LnkCtl:    ASPM Disabled; RCB 64 bytes Disabled- CommClk+
            ExtSynch- ClockPM- AutWidDis- BWInt- AutBWInt-
        LnkSta:    Speed 2.5GT/s, Width x1, TrErr- Train- SlotClk+ DLActive- BWMgmt- ABWMgmt-
        DevCap2: Completion Timeout: Range ABCD, TimeoutDis+, LTR-, OBFF Not Supported
        DevCtl2: Completion Timeout: 50us to 50ms, TimeoutDis-, LTR-, OBFF Disabled
        LnkCtl2: Target Link Speed: 2.5GT/s, EnterCompliance- SpeedDis-
             Transmit Margin: Normal Operating Range, EnterModifiedCompliance- ComplianceSOS-
             Compliance De-emphasis: -6dB
        LnkSta2: Current De-emphasis Level: -6dB, EqualizationComplete-, EqualizationPhase1-
             EqualizationPhase2-, EqualizationPhase3-, LinkEqualizationRequest-
    Capabilities: [b0] MSI-X: Enable- Count=4 Masked-
        Vector table: BAR=4 offset=00000000
        PBA: BAR=4 offset=00000800
    Capabilities: [d0] Vital Product Data
        Unknown small resource type 00, will not decode more.
    Capabilities: [100 v1] Advanced Error Reporting
        UESta:    DLP- SDES- TLP- FCP- CmpltTO- CmpltAbrt- UnxCmplt- RxOF- MalfTLP- ECRC- UnsupReq- ACSViol-
        UEMsk:    DLP- SDES- TLP- FCP- CmpltTO- CmpltAbrt- UnxCmplt- RxOF- MalfTLP- ECRC- UnsupReq- ACSViol-
        UESvrt:    DLP+ SDES+ TLP- FCP+ CmpltTO- CmpltAbrt- UnxCmplt- RxOF+ MalfTLP+ ECRC- UnsupReq- ACSViol-
        CESta:    RxErr- BadTLP- BadDLLP- Rollover- Timeout- NonFatalErr-
        CEMsk:    RxErr- BadTLP- BadDLLP- Rollover- Timeout- NonFatalErr+
        AERCap:    First Error Pointer: 00, GenCap+ CGenEn- ChkCap+ ChkEn-
    Capabilities: [140 v1] Virtual Channel
        Caps:    LPEVC=0 RefClk=100ns PATEntryBits=1
        Arb:    Fixed- WRR32- WRR64- WRR128-
        Ctrl:    ArbSelect=Fixed
        Status:    InProgress-
        VC0:    Caps:    PATOffset=00 MaxTimeSlots=1 RejSnoopTrans-
            Arb:    Fixed- WRR32- WRR64- WRR128- TWRR128- WRR256-
            Ctrl:    Enable+ ID=0 ArbSelect=Fixed TC/VC=01
            Status:    NegoPending- InProgress-
    Capabilities: [160 v1] Device Serial Number 01-00-00-00-68-4c-e0-00
    Kernel driver in use: r8169

 

There is dmesg:

[    1.368357] [drm:i915_write32] *ERROR* Unknown unclaimed register before writing to c5100
[    1.368425] i915 0000:00:02.0: irq 51 for MSI/MSI-X

 

 

I thinki, reason is something related https://software.intel.com/en-us/forums/topic/479920?

And this server have no supported chip?

 

0 Kudos
8 Replies
Surbhi_M_Intel
Employee
211 Views

Hi Adam,

Sorry, I am bit confused with your question. I am not sure whether you are seeing an issue with FFMpeg to transcode from .ts to .mp4 file or the issue is with our Media SDK encoder. Can you please explain the issue briefly and also the use case with the steps you are taking to achieve it. 

It will be great if you can narrow down to the point of the error, so that we can help you. This forum support is for the issue seen with Media SDK. Issues related to ffmpeg standalone are out of the scope of this forum. 


Thanks,
-Surbhi


 

Mantas_D_
Beginner
211 Views

 Adam, add deinterlace filter, yadiff in the chain and see if it works.

Adam_D_1
Beginner
211 Views

SURBHI M. (Intel), without qsync ffmpeg work without error, see my first screenshot

Mantas D, I try add filter, it is not depends on. Problem in qsynk (SDK) init only.

 

My ffmpeg compiled with SDK for encode/decode h264 using hardware intel chip.

So, my question about MFX Init Error, not about ffmpeg

 

pon
Beginner
211 Views

Adam_D_1
Beginner
211 Views

Ok, I was build qsv-ffmpeg-codec and get same result:

root@server4:~# /opt/intel/mediasdk/bin/ffmpeg -i San_Diego_Clip.ts -c:v h264_qsv San_Diego_Clip.mp4
ffmpeg version 2.2 Copyright (c) 2000-2014 the FFmpeg developers
  built on Sep 10 2014 06:22:32 with gcc 4.8 (Ubuntu 4.8.2-19ubuntu1)
  configuration: --extra-libs='-lmfx -lsupc++ -lstdc++ -ldl -lva -lva-drm' --extra-ldflags=-L/opt/intel/mediasdk/lib --extra-cflags=-I/opt/intel/mediasdk/include --prefix=/opt/intel/mediasdk
  libavutil      52. 66.100 / 52. 66.100
  libavcodec     55. 52.102 / 55. 52.102
  libavformat    55. 33.100 / 55. 33.100
  libavdevice    55. 10.100 / 55. 10.100
  libavfilter     4.  2.100 /  4.  2.100
  libswscale      2.  5.102 /  2.  5.102
  libswresample   0. 18.100 /  0. 18.100
Input #0, mpegts, from 'San_Diego_Clip.ts':
  Duration: 00:01:39.82, start: 0.254489, bitrate: 26053 kb/s
  Program 1 
    Stream #0:0[0x810]: Video: mpeg2video (Main) ([2][0][0][0] / 0x0002), yuv420p(tv), 1440x1080 [SAR 4:3 DAR 16:9], max. 25000 kb/s, 29.97 fps, 29.97 tbr, 90k tbn, 59.94 tbc
    Stream #0:1[0x814]: Audio: mp2 ([3][0][0][0] / 0x0003), 48000 Hz, stereo, s16p, 384 kb/s
File 'San_Diego_Clip.mp4' already exists. Overwrite ? [y/N] y
[h264_qsv @ 0x2e91a20] MFXInit(): -3
Output #0, mp4, to 'San_Diego_Clip.mp4':
    Stream #0:0: Video: h264, nv12, 1440x1080 [SAR 4:3 DAR 16:9], q=2-31, 90k tbn, 29.97 tbc
    Stream #0:1: Audio: aac, 48000 Hz, stereo, fltp, 128 kb/s
Stream mapping:
  Stream #0:0 -> #0:0 (mpeg2video -> h264_qsv)
  Stream #0:1 -> #0:1 (mp2 -> aac)
Error while opening encoder for output stream #0:0 - maybe incorrect parameters such as bit_rate, rate, width or height
root@server4:~# 

 

I was bold it.

So, it is 100% hardvare problem.

 

 

pon
Beginner
211 Views

Need bitrate option
Try command
ffmpeg -i San_Diego_Clip.ts -c:v h264_qsv -b 2000k San_Diego_Clip.mp4

Adam_D_1
Beginner
211 Views

Nope. It not related bitrate or other options.

Janusz_B_
Beginner
211 Views

Not sure if this will help any but you can try specifying the pixel format for the output. Try adding "-pix_fmt yuv420p" before the output file.

Reply